Читай: Суфражистка Suffragette 2015 HDRip -Суфражистка Suffragette 2015 HDRip -Производство Великобритания British Film Institute BFI ,


 
Я знаю, зачем нужны эти кнопки. А ты? Тогда поделитесь с друзьями!




Автор
Опубликовано: 17492 дня назад ( 1 января 1970)
0
Голосов: 0
Суфражистка / Suffragette (2015) HDRip

-Суфражистка / Suffragette (2015) HDRip -Производство: Великобритания / British Film Institute (BFI), Canal+ France, Redgill Productions
Жанр: драма, биография, история
Режиссер: Сара Гаврон
Продюсер: Элисон Оуэн, Фэй Уорд, Ник Бауэр
Актеры: Кэри Маллиган, Хелена Бонем Картер, Брендан Глисон, Энн-Мэри Дафф, Мэрил Стрип, Грэйс Стоттор, Джофф Белл, Аманда Лоуренс, Шелли Лонгуорт, Адам Майкл Додд
Описание:
Фильм посвящен движению суфражисток (борьба за предоставление женщинам избирательных прав), зародившемуся в Великобритании в конце 19 века.

Рейтинг MPAA: PG-13 (детям до 13 лет просмотр нежелателен)
Дата мировой премьеры: 4 сентября 2015
Релиз от: Scarabey
Продолжительность: 01:46:33
Качество видео: HDRip
Перевод: Дублированный (Лицензия)
Cубтитры: Отсутствуют
Видео: Xvid, 720x304, ~1553 kbps
Аудио: AC3, 6 ch, 448 kbpsMediainfo:Код:Общее
Полное имя                               : F:Suffragette.2015.HDRip.Torbina.com.avi
Формат                                   : AVI
Формат/Информация                        : Audio Video Interleave
Размер файла                             : 1,49 Гбайт
Продолжительность                        : 1 ч. 46 м.
Общий поток                              : 2008 Кбит/сек
Программа кодирования                    : VirtualDubMod 1.5.10.2 (build 2540/release)
Библиотека кодирования                   : VirtualDub build 32842/release
Видео
Идентификатор                            : 0
Формат                                   : MPEG-4 Visual
Профиль формата                          : Advanced Simple@L5
Параметр BVOP формата                    : 1
Параметр QPel формата                    : Нет
Параметр GMC формата                     : Без точки перехода
Параметр матрицы формата                 : Выборочная
Идентификатор кодека                     : XVID
Идентификатор кодека/Подсказка           : XviD
Продолжительность                        : 1 ч. 46 м.
Битрейт                                  : 1553 Кбит/сек
Ширина                                   : 720 пикселей
Высота                                   : 304 пикселя
Соотношение сторон                       : 2,35:1
Частота кадров                           : 23,976 кадра/сек
Цветовое пространство                    : YUV
Субдискретизация насыщенности            : 4:2:0
Битовая глубина                          : 8 бит
Тип развёртки                            : Прогрессивная
Метод сжатия                             : С потерями
Бит/(Пиксели*Кадры)                      : 0.296
Размер потока                            : 1,16 Гбайт (77%)
Библиотека кодирования                   : XviD 73
Аудио
Идентификатор                            : 1
Формат                                   : AC-3
Формат/Информация                        : Audio Coding 3
Расширение режима                        : CM (complete main)
Параметр Endianness формата              : Big
Идентификатор кодека                     : 2000
Продолжительность                        : 1 ч. 46 м.
Вид битрейта                             : Постоянный
Битрейт                                  : 448 Кбит/сек
Каналы                                   : 6 каналов
Расположение каналов                     : Front: L C R, Side: L R, LFE
Частота                                  : 48,0 КГц
Битовая глубина                          : 16 бит
Метод сжатия                             : С потерями
Размер потока                            : 340 Мбайт (22%)
Выравнивание                             : Соединение по промежуткам
Продолжительность промежутка             : 42  мс. (1,00 видеокадр)
Время предзагрузки промежутка            : 512  мс.Скриншоты:

Время раздачи: 24/7 до 10 скачавших



16 просмотров

Читайте также:

Читай:  club78681175 Листмейстер Потомки солнца БИОГРАФИЯ Джи Су Ji Soo ________________________________ День рождения 30 03 1993 Знак зодиака

Читай: club78681175 Листмейстер Потомки солнца БИОГРАФИЯ Джи Су Ji Soo ________________________________ День рождения 30 03 1993 Знак зодиака

[club78681175|☆ Листмейстер | Потомки солнца ☆] [БИОГРАФИЯ] Джи Су | Ji Soo ________________________________ День рождения: 30/03/1993 Знак зодиака: Петух, Овен ♈ Сценическое имя: Джису / Ji Soo /...
Высказывания -  1. Пойми, что тебе по-настоящему нравится. 2. Откажись от мусора,

Высказывания - 1. Пойми, что тебе по-настоящему нравится. 2. Откажись от мусора,

1. Пойми, что тебе по-настоящему нравится. 2. Откажись от мусора, который ты ешь, пьешь и куришь каждый день. 3. Учи иностранные языки. 4. Читай книги. 5. Проводи с толком каждые свои выходные. 6. ...
Готовим куриные ножки в мешочке-Рецепт читай

Готовим куриные ножки в мешочке-Рецепт читай

Куриные ножки в мешочке рецептик Ингредиенты 500 г слоеного теста (пресного или дрожжевого) 600 г (6 штук) куриной голени 300 г грибов (свежих или замороженных) 700 г картофеля 150 г лука 50 мл мол...
Читай:  Лeди в фургoне Thе Lаdy in the Vаn - 2015 NEW Страна Великобритания ...

Читай: Лeди в фургoне Thе Lаdy in the Vаn - 2015 NEW Страна Великобритания ...

Лeди в фургoне / Thе Lаdy in the Vаn - 2015 ❗ NEW Страна: Великобритания ... Рейтинг: 6,9 (IMDb) Жанр: драма, комедия, биография История об эксцентричной лондонской старушке. Мэри Шеперд — бездо...

Комментарии